&title=[宴] Oshama Scramble!
&artist=t+pazolite
&wholebpm=190
&demo_seek=41.8
&demo_len=21.5
&lv_7=宴
&inote_7=(190.0){1},,,,,,,,
{4},,,6b/3b^8[8:1],
{4}6^1[8:1],4p7[8:1],5q2[8:1],3^8[8:1],
{4}6^1[8:1],4p7[8:1],5q2[8:1],3b^8[8:1],
{4}6^1[8:1],4p7[8:1],5q2[8:1],3^8[8:1],
{4}6^1[8:1],4,4-1[8:1]/5-8[8:1],4b/5b,
{4}6^1[8:1],4p7[8:1],5q2[8:1],3^8[8:1],
{4}6^1[8:1],4p7[8:1],5q2[8:1],3b^8[8:1],
{4}6^1[8:1],4p7[8:1],5q2[8:1],3^8[8:1],
{4}6^1[8:1],4p7[8:1],5,2b/7b,
{2}8h[2:7],7,
{2}7h[2:5],6,
{2}6h[2:3],5,
{1}5h[2:1],
{2}1h[2:7],2,
{2}2h[2:5],3,
{2}3h[2:3],4,
{4}4h[2:1],,,3>6[4:1],
{4}6?<3[4:1],3?>6[4:1],6?<3[4:1],3?>6[4:1],
{4}6?<3[4:1],3?>6[4:1],6?<3[4:1],3?>6[4:1],
{4}6?<3[4:1],3?>6[4:1],6?<3[4:1],3?>6[4:1],
{4}6?<3[4:1],,,3b/6<3[4:1],
{4}3?>6[4:1],6?<3[4:1],3?>6[4:1],6?<3[4:1],
{4}3?>6[4:1],6?<3[4:1],3?>6[4:1],6?<3[4:1],
{4}3?>6[4:1],6?<3[4:1],3?>6[4:1],6?<3[4:1],
{4}3?>6[4:1],6?<3[4:1],,,
{4}1b/8b,,,5?w1[4:1],
{4}1?w5[4:1],5?w1[4:1],1?w5[4:1],5?w1[4:1],
{4}1?w5[4:1],5?w1[4:1],1?w5[4:1],5?w1[4:1],
{4}1?w5[4:1],5?w1[4:1],1?w5[4:1],5?w1[4:1],
{4}1?w5[4:1],5?w1[4:1],1?w5[4:1],5?w1[4:1],
{4}1?w5[4:1],5?w1[4:1],1?w5[4:1],5?w1[4:1],
{4}1?w5[4:1],5?w1[4:1],1?w5[4:1],5?w1[4:1],
{4}1?w5[4:1],5?w1[4:1],1?w5[4:1],5?w1[4:1],{1},
{1}4h[2:1]/5h[2:1],
{1}4h[2:1]/5h[2:1],
{1}4h[2:1]/5h[2:1],
{1}4h[2:1]/5h[2:1],
{1}4h[2:1]/5h[2:1],
{1}4h[2:1]/5h[2:1],
{4}4/5,,,1?q4[4:3],{1},
{1}6h[2:7],
{1}5h[2:5],
{1}4h[2:3],
{1}3h[2:1],
{1}2h[2:7],
{1}1h[2:5],
{1}8h[2:3],
{1}7h[2:1],
{1}5w1[2:1],
{1}2b/8b,
{1}4w8[2:1],
{1}1b/7b,
{4}5w1[4:1],,,2b/7b,
{4}4w8[4:1],,,2b/7b,
{4}5-8[8:1],4b,4-1[8:1],5b,
{4}4/5,3/6,2/7,1b/8b,
{1}3qq8[4:5]/4pp7[4:5],,
{1}5qq2[4:5]/6pp1[4:5],,
{2}8h[1:4],7h[2:7],
{2}6h[1:3],1h[2:5],
{2}2h[1:2],3h[2:3],
{2}4h[1:1],5h[2:1],{1},
{4}2b/7b,,,1b/8b,
{1}2qq7[8:3]/3q6[8:3],
{1}2qq7[8:3]/3q6[8:3],
{1}2qq7[8:3]/3q6[8:3],
{4}2qq7[8:3]/3q6[8:3],,,2b/7b,
{1}2qq7[8:3]/3q6[8:3],
{1}2qq7[8:3]/3q6[8:3],
{1}2qq7[8:3]/3q6[8:3],
{4}4qq1[8:3]/5pp8[8:3],,,2b/7b,
{1}6p3[8:3]/7pp2[8:3],
{1}6p3[8:3]/7pp2[8:3],
{1}6p3[8:3]/7pp2[8:3],
{4}6p3[8:3]/7pp2[8:3],,,1b/8b,
{1}6p3[8:3]/7pp2[8:3],
{1}6p3[8:3]/7pp2[8:3],
{1}6p3[8:3]/7pp2[8:3],
{1}4qq1[8:3]/5pp8[8:3],
{1}5b<4[2:7],,,
{4},,,8b,
E
